Details for this torrent 


Z The Beginning of Everything S01E01 1080p AMZN WEBRip HEVC x265
Type:
Video > HD - TV shows
Files:
1
Size:
423.46 MiB (444031492 Bytes)
Info:
IMDB
Spoken language(s):
English
Texted language(s):
English
Tag(s):
x265 hevc 1080p
Uploaded:
2017-01-12 11:25:31 GMT
By:
nayhtut VIP
Seeders:
0
Leechers:
0
Comments
0  

Info Hash:
0D65B500B8F91FCE0DE024E808D963447F50DD05




(Problems with magnets links are fixed by upgrading your torrent client!)
Source:Z The Beginning of Everything S01E01 REPACK 1080p AMZN WEBRip DD5.1 x264-monkee (1.55 GB)

 
Complete name:
Z.The.Beginning.of.Everything.S01E01.REPACK.1080p.AMZN.WEBRip.HEVC.DD5.1.x265.mkv
Format                                   : Matroska
Format version                           : Version 4 / Version 2
File size                                : 423 MiB
Duration                                 : 27mn 4s
Overall bit rate                         : 2 186 Kbps
Writing application                      : Lavf57.25.100

Video

ID                                       : 1
Format                                   : V_MPEGH/ISO/HEVC
Duration                                 : 27mn 4s
Bit rate                                 : 1 759 Kbps
Width                                    : 1 920 pixels
Height                                   : 1 080 pixels
Display aspect ratio                     : 16:9
Frame rate                               : 25.000 fps
Bits/(Pixel*Frame)                       : 0.034
Stream size                              : 341 MiB (80%)
Default                                  : Yes
Forced                                   : No
DURATION                                 : 00:27:04.931000000

Audio

ID                                       : 2
Format                                   : E-AC-3
Format/Info                              : Audio Coding 3
Format settings, Endianness              : Big
Codec ID                                 : A_EAC3
Duration                                 : 27mn 4s
Bit rate mode                            : Constant
Bit rate                                 : 384 Kbps
Channel(s)                               : 6 channels
Channel positions                        : Front: L C R, Side: L R, LFE
Sampling rate                            : 48.0 KHz
Bit depth                                : 32 bits
Compression mode                         : Lossy
Stream size                              : 74.4 MiB (18%)
Writing library                          : Lavc57.24.102 eac3
Default                                  : Yes
Forced                                   : No
DURATION                                 : 00:27:04.895000000

Text

ID                                       : 3
Codec ID                                 : S_TEXT/ASS
Language                                 : English